<?xml version="1.0" standalone="no"?>
<!DOCTYPE svg PUBLIC "-//W3C//DTD SVG 1.1//EN" "http://www.w3.org/Graphics/SVG/1.1/DTD/svg11.dtd" >
<svg xmlns="http://www.w3.org/2000/svg">
<metadata>Generated by IcoMoon</metadata>
<defs>
<font id="icomoon" horiz-adv-x="1024">
<font-face units-per-em="1024" ascent="960" descent="-64" />
<missing-glyph horiz-adv-x="1024" />
<glyph unicode="&#x20;" horiz-adv-x="512" d="" />
<glyph unicode="&#xe900;" glyph-name="align-left" d="M29.248 228.576h599.552c16.224 0 29.248 13.024 29.248 29.248 0 0 0 0 0 0v87.552c0 16.224-13.024 29.248-29.248 29.248 0 0 0 0 0 0h-599.552c-16.224 0.224-29.248-12.8-29.248-29.024 0 0 0 0 0 0v-87.552c0-16.448 13.024-29.472 29.248-29.472 0 0 0 0 0 0zM29.248 813.728h599.552c16.224 0 29.248 13.024 29.248 29.248 0 0 0 0 0 0v87.776c0.224 16.224-12.8 29.248-29.024 29.248 0 0 0 0 0 0h-599.776c-16.224 0-29.248-13.024-29.248-29.248 0 0 0 0 0 0v-87.552c0-16.448 13.024-29.472 29.248-29.472 0 0 0 0 0 0zM987.424 667.424h-950.848c-20.128 0-36.576-16.448-36.576-36.576v-73.152c0-20.128 16.448-36.576 36.576-36.576h950.848c20.128 0 36.576 16.448 36.576 36.576v73.152c0 20.128-16.448 36.576-36.576 36.576zM987.424 82.272h-950.848c-20.128 0-36.576-16.448-36.576-36.576v-73.152c0-20.128 16.448-36.576 36.576-36.576h950.848c20.128 0 36.576 16.448 36.576 36.576v73.152c0 20.128-16.448 36.576-36.576 36.576z" />
<glyph unicode="&#xe901;" glyph-name="brush" d="M832 960h-640c-35.392 0-64-28.608-64-64v-448h768v448c0 35.392-28.608 64-64 64zM128 320c0-70.784 57.408-128 128-128h128v-128c0-70.784 57.408-128 128-128s128 57.216 128 128v128h128c70.592 0 128 57.216 128 128v64h-768v-64zM512 112c26.592 0 48-21.408 48-48s-21.6-48-48-48-48 21.6-48 48c0 26.592 21.6 48 48 48z" />
<glyph unicode="&#xe902;" glyph-name="calendar-alt" d="M360 384h-80c-13.184 0-24 10.784-24 24v80c0 13.184 10.816 24 24 24h80c13.184 0 24-10.816 24-24v-80c0-13.216-10.816-24-24-24zM576 408v80c0 13.184-10.784 24-24 24h-80c-13.184 0-24-10.816-24-24v-80c0-13.216 10.816-24 24-24h80c13.216 0 24 10.784 24 24zM768 408v80c0 13.184-10.784 24-24 24h-80c-13.216 0-24-10.816-24-24v-80c0-13.216 10.784-24 24-24h80c13.216 0 24 10.784 24 24zM576 216v80c0 13.216-10.784 24-24 24h-80c-13.184 0-24-10.784-24-24v-80c0-13.216 10.816-24 24-24h80c13.216 0 24 10.784 24 24zM384 216v80c0 13.216-10.816 24-24 24h-80c-13.184 0-24-10.784-24-24v-80c0-13.216 10.816-24 24-24h80c13.184 0 24 10.784 24 24zM768 216v80c0 13.216-10.784 24-24 24h-80c-13.216 0-24-10.784-24-24v-80c0-13.216 10.784-24 24-24h80c13.216 0 24 10.784 24 24zM960 736v-704c0-52.992-43.008-96-96-96h-704c-52.992 0-96 43.008-96 96v704c0 52.992 43.008 96 96 96h96v104c0 13.184 10.816 24 24 24h80c13.184 0 24-10.816 24-24v-104h256v104c0 13.184 10.784 24 24 24h80c13.216 0 24-10.816 24-24v-104h96c52.992 0 96-43.008 96-96zM864 44v596h-704v-596c0-6.592 5.408-12 12-12h680c6.592 0 12 5.408 12 12z" />
<glyph unicode="&#xe903;" glyph-name="caret-down" horiz-adv-x="1806" d="M121.471 960h1562.724c108.109 0 162.164-130.581 85.637-207.108l-781.058-781.665c-47.374-47.374-124.508-47.374-171.881 0l-781.058 781.665c-76.527 76.527-22.472 207.108 85.637 207.108z" />
<glyph unicode="&#xe904;" glyph-name="caret-left" horiz-adv-x="581" d="M580.863 891.137v-885.929c0-61.289-74.028-91.933-117.412-48.549l-443.137 442.792c-26.857 26.857-26.857 70.585 0 97.442l442.792 442.792c43.384 43.384 117.757 12.74 117.757-48.549z" />
<glyph unicode="&#xe905;" glyph-name="caret-right" horiz-adv-x="581" d="M0 4.863v886.273c0 61.289 74.028 91.933 117.412 48.549l443.137-443.137c26.857-26.857 26.857-70.585 0-97.442l-443.137-442.792c-43.384-43.384-117.412-12.74-117.412 48.549z" />
<glyph unicode="&#xe906;" glyph-name="caret-up" horiz-adv-x="1805" d="M1683.803-64h-1562.404c-108.045 0-162.068 130.504-85.586 206.985l781.202 781.202c47.346 47.346 124.434 47.346 171.779 0l781.202-781.202c75.874-75.874 21.852-206.985-86.193-206.985v0z" />
<glyph unicode="&#xe907;" glyph-name="check" d="M347.8 81.2l-332.8 332.8c-20 20-20 52.4 0 72.4l72.4 72.4c20 20 52.4 20 72.4 0l224.2-224.2 480.2 480.2c20 20 52.4 20 72.4 0l72.4-72.4c20-20 20-52.4 0-72.4l-588.799-588.799c-20-20-52.4-20-72.4 0v0z" />
<glyph unicode="&#xe908;" glyph-name="check-square" d="M914.272 960h-804.576c-60.576 0-109.728-49.152-109.728-109.728v-804.576c0-60.576 49.152-109.728 109.728-109.728h804.576c60.576 0 109.728 49.152 109.728 109.728v804.576c0 60.576-49.152 109.728-109.728 109.728zM914.272 45.728h-804.576v804.576h804.576v-804.576zM832.224 598.176l-394.528-391.328c-10.752-10.752-28.128-10.528-38.848 0.224l-207.552 209.152c-10.752 10.752-10.528 28.128 0.224 38.848l51.872 51.424c10.752 10.752 28.128 10.528 38.848-0.224l136.672-137.824 323.2 320.448c10.752 10.752 28.128 10.528 38.848-0.224l51.424-51.872c10.752-10.528 10.528-27.872-0.224-38.624v0z" />
<glyph unicode="&#xe909;" glyph-name="clock" d="M512 960c-282.848 0-512-229.152-512-512s229.152-512 512-512 512 229.152 512 512-229.152 512-512 512zM512 35.104c-228.128 0-412.896 184.768-412.896 412.896s184.768 412.896 412.896 412.896 412.896-184.768 412.896-412.896-184.768-412.896-412.896-412.896zM639.584 250.624l-175.264 127.392c-6.4 4.736-10.112 12.192-10.112 20.032v339.008c0 13.632 11.136 24.768 24.768 24.768h66.080c13.632 0 24.768-11.136 24.768-24.768v-292.544l137.92-100.32c11.136-8.064 13.408-23.52 5.376-34.688l-38.816-53.472c-8.064-10.944-23.52-13.408-34.688-5.376v0z" />
<glyph unicode="&#xe90a;" glyph-name="code" d="M446.24 39.264l-97.6 28.32c-10.24 2.88-16 13.6-13.12 23.84l218.368 752.256c2.88 10.24 13.6 16 23.84 13.12l97.6-28.32c10.24-2.88 16-13.6 13.12-23.84l-218.368-752.256c-3.040-10.24-13.6-16.16-23.84-13.12zM263.872 218.752l69.6 74.24c7.36 7.84 6.88 20.32-1.28 27.52l-144.96 127.52 144.96 127.52c8.16 7.2 8.8 19.68 1.28 27.52l-69.6 74.24c-7.2 7.68-19.36 8.16-27.2 0.8l-230.528-215.968c-8.16-7.52-8.16-20.48 0-28l230.528-216.128c7.84-7.36 20-7.040 27.2 0.8v0zM787.328 217.792l230.528 216.128c8.16 7.52 8.16 20.48 0 28l-230.528 216.288c-7.68 7.2-19.84 6.88-27.2-0.8l-69.6-74.24c-7.36-7.84-6.88-20.32 1.28-27.52l144.96-127.68-144.96-127.52c-8.16-7.2-8.8-19.68-1.28-27.52l69.6-74.24c7.2-7.84 19.36-8.16 27.2-0.96v0z" />
<glyph unicode="&#xe90b;" glyph-name="cog" d="M989.6 324.96l-87.936 50.784c8.864 47.904 8.864 97.024 0 144.928l87.936 50.784c10.112 5.792 14.656 17.76 11.36 28.896-22.912 73.504-61.92 139.968-112.928 195.296-7.84 8.48-20.64 10.528-30.56 4.736l-87.936-50.784c-36.96 31.808-79.488 56.352-125.536 72.48v101.376c0 11.552-8.064 21.664-19.392 24.16-75.776 16.928-153.408 16.096-225.44 0-11.36-2.464-19.392-12.608-19.392-24.16v-101.568c-45.824-16.32-88.352-40.864-125.536-72.48l-87.744 50.784c-10.112 5.792-22.72 3.936-30.56-4.736-51.008-55.136-90.016-121.6-112.928-195.296-3.52-11.136 1.248-23.136 11.36-28.896l87.936-50.784c-8.864-47.904-8.864-97.024 0-144.928l-87.936-50.784c-10.112-5.792-14.656-17.76-11.36-28.896 22.912-73.504 61.92-139.968 112.928-195.296 7.84-8.48 20.64-10.528 30.56-4.736l87.936 50.784c36.96-31.808 79.488-56.352 125.536-72.48v-101.568c0-11.552 8.064-21.664 19.392-24.16 75.776-16.928 153.408-16.096 225.44 0 11.36 2.464 19.392 12.608 19.392 24.16v101.568c45.824 16.32 88.352 40.864 125.536 72.48l87.936-50.784c10.112-5.792 22.72-3.936 30.56 4.736 51.008 55.136 90.016 121.6 112.928 195.296 3.104 11.36-1.44 23.328-11.552 29.12zM511.872 283.040c-91.040 0-165.152 74.112-165.152 165.152s74.112 165.152 165.152 165.152 165.152-74.112 165.152-165.152-74.112-165.152-165.152-165.152z" />
<glyph unicode="&#xe90c;" glyph-name="cogs" d="M819.456 550.816l-13.12-22.88c-4.8-8.48-15.040-12-24.16-8.64-18.88 7.040-36.16 17.12-51.36 29.76-7.36 6.080-9.28 16.8-4.48 25.12l13.12 22.88c-11.040 12.8-19.68 27.68-25.44 43.84h-26.4c-9.6 0-17.92 6.88-19.52 16.48-3.2 19.2-3.36 39.36 0 59.36 1.6 9.6 9.92 16.64 19.52 16.64h26.4c5.76 16.16 14.4 31.040 25.44 43.84l-13.12 22.88c-4.8 8.32-3.040 19.040 4.48 25.12 15.2 12.64 32.64 22.72 51.36 29.76 9.12 3.36 19.36-0.16 24.16-8.64l13.12-22.88c16.8 3.040 33.92 3.040 50.72 0l13.12 22.88c4.8 8.48 15.040 12 24.16 8.64 18.88-7.040 36.16-17.12 51.36-29.76 7.36-6.080 9.28-16.8 4.48-25.12l-13.12-22.88c11.040-12.8 19.68-27.68 25.44-43.84h26.4c9.6 0 17.92-6.88 19.52-16.48 3.2-19.2 3.36-39.36 0-59.36-1.6-9.6-9.92-16.64-19.52-16.64h-26.4c-5.76-16.16-14.4-31.040-25.44-43.84l13.12-22.88c4.8-8.32 3.040-19.040-4.48-25.12-15.2-12.64-32.64-22.72-51.36-29.76-9.12-3.36-19.36 0.16-24.16 8.64l-13.12 22.88c-16.64-3.040-33.92-3.040-50.72 0zM802.656 644.896c61.6-47.36 131.84 22.88 84.48 84.48-61.6 47.52-131.84-22.88-84.48-84.48zM618.144 398.624l53.92-26.88c16.16-9.28 23.2-28.96 16.8-46.56-14.24-38.72-42.24-74.24-68.16-105.28-11.84-14.24-32.32-17.76-48.48-8.48l-46.56 26.88c-25.6-21.92-55.36-39.36-87.84-50.72v-53.76c0-18.56-13.28-34.56-31.52-37.76-39.36-6.72-80.64-7.040-121.44 0-18.4 3.2-32 19.040-32 37.76v53.76c-32.48 11.52-62.24 28.8-87.84 50.72l-46.56-26.72c-16-9.28-36.64-5.76-48.48 8.48-25.92 31.040-53.28 66.56-67.52 105.12-6.4 17.44 0.64 37.12 16.8 46.56l53.28 26.88c-6.24 33.44-6.24 67.84 0 101.44l-53.28 27.040c-16.16 9.28-23.36 28.96-16.8 46.4 14.24 38.72 41.6 74.24 67.52 105.28 11.84 14.24 32.32 17.76 48.48 8.48l46.56-26.88c25.6 21.92 55.36 39.36 87.84 50.72v53.92c0 18.4 13.12 34.4 31.36 37.6 39.36 6.72 80.8 7.040 121.6 0.16 18.4-3.2 32-19.040 32-37.76v-53.76c32.48-11.52 62.24-28.8 87.84-50.72l46.56 26.88c16 9.28 36.64 5.76 48.48-8.48 25.92-31.040 53.12-66.56 67.36-105.28 6.4-17.44 0.16-37.12-16-46.56l-53.92-26.88c6.24-33.6 6.24-68 0-101.6zM429.984 364.864c94.72 123.2-45.92 263.872-169.12 169.12-94.72-123.2 45.92-263.872 169.12-169.12zM819.456 72.544l-13.12-22.88c-4.8-8.48-15.040-12-24.16-8.64-18.88 7.040-36.16 17.12-51.36 29.76-7.36 6.080-9.28 16.8-4.48 25.12l13.12 22.88c-11.040 12.8-19.68 27.68-25.44 43.84h-26.4c-9.6 0-17.92 6.88-19.52 16.48-3.2 19.2-3.36 39.36 0 59.36 1.6 9.6 9.92 16.64 19.52 16.64h26.4c5.76 16.16 14.4 31.040 25.44 43.84l-13.12 22.88c-4.8 8.32-3.040 19.040 4.48 25.12 15.2 12.64 32.64 22.72 51.36 29.76 9.12 3.36 19.36-0.16 24.16-8.64l13.12-22.88c16.8 3.040 33.92 3.040 50.72 0l13.12 22.88c4.8 8.48 15.040 12 24.16 8.64 18.88-7.040 36.16-17.12 51.36-29.76 7.36-6.080 9.28-16.8 4.48-25.12l-13.12-22.88c11.040-12.8 19.68-27.68 25.44-43.84h26.4c9.6 0 17.92-6.88 19.52-16.48 3.2-19.2 3.36-39.36 0-59.36-1.6-9.6-9.92-16.64-19.52-16.64h-26.4c-5.76-16.16-14.4-31.040-25.44-43.84l13.12-22.88c4.8-8.32 3.040-19.040-4.48-25.12-15.2-12.64-32.64-22.72-51.36-29.76-9.12-3.36-19.36 0.16-24.16 8.64l-13.12 22.88c-16.64-3.040-33.92-3.040-50.72 0zM802.656 166.784c61.6-47.36 131.84 22.88 84.48 84.48-61.6 47.36-131.84-22.88-84.48-84.48v0z" />
<glyph unicode="&#xe90d;" glyph-name="dollar-sign" d="M642.4 493.184l-216 63.2c-24.992 7.2-42.4 30.592-42.4 56.608 0 32.608 26.4 59.008 59.008 59.008h132.608c24.384 0 48.384-7.392 68.384-20.992 12.192-8.192 28.608-6.208 39.008 4l69.6 68c14.208 13.792 12.192 36.8-3.616 48.992-48.992 38.4-110.208 59.808-172.992 60v96c0 17.6-14.4 32-32 32h-64c-17.6 0-32-14.4-32-32v-96h-4.992c-127.392 0-229.792-109.408-218.016-239.2 8.416-92.192 78.816-167.2 167.616-193.184l204.992-60c24.992-7.392 42.4-30.592 42.4-56.608 0-32.608-26.4-59.008-59.008-59.008h-132.608c-24.384 0-48.384 7.392-68.384 20.992-12.192 8.192-28.608 6.208-39.008-4l-69.6-68c-14.208-13.792-12.192-36.8 3.616-48.992 48.992-38.4 110.208-59.808 172.992-60v-96c0-17.6 14.4-32 32-32h64c17.6 0 32 14.4 32 32v96.384c93.216 1.792 180.608 57.216 211.392 145.408 43.008 123.2-29.216 249.6-144.992 283.392v0z" />
<glyph unicode="&#xe90e;" glyph-name="ellipsis-v" d="M637.568 61.568c0-69.344-56.224-125.568-125.568-125.568s-125.568 56.224-125.568 125.568c0 69.344 56.224 125.568 125.568 125.568s125.568-56.224 125.568-125.568zM637.568 447.872c0-69.344-56.224-125.568-125.568-125.568s-125.568 56.224-125.568 125.568c0 69.344 56.224 125.568 125.568 125.568s125.568-56.224 125.568-125.568zM637.568 834.432c0-69.344-56.224-125.568-125.568-125.568s-125.568 56.224-125.568 125.568c0 69.344 56.224 125.568 125.568 125.568s125.568-56.224 125.568-125.568z" />
<glyph unicode="&#xe90f;" glyph-name="exchange-alt" d="M271.904 911.712v-719.52h95.936c42.912 0 63.968-51.968 34.112-82.080l-159.904-159.904c-18.912-18.912-49.312-18.912-67.68 0l-159.904 159.904c-30.368 30.368-9.056 82.080 33.568 82.080h95.936v719.52c0 26.656 21.6 47.968 47.968 47.968h31.968c26.368 0 47.968-21.312 47.968-47.968v0zM799.84-63.68h31.968c26.656 0 47.968 21.312 47.968 47.968v719.52h95.936c42.912 0 63.968 51.712 34.112 82.080l-159.904 159.904c-18.656 18.912-49.024 18.912-67.68 0l-159.904-159.904c-30.368-30.368-8.8-82.080 33.568-82.080h95.936v-719.52c0-26.656 21.6-47.968 47.968-47.968v0z" />
<glyph unicode="&#xe910;" glyph-name="eye" d="M511.936 647.136c-18.848-0.352-37.504-3.2-55.456-8.896 8.352-14.592 12.8-31.104 12.8-48 0-54.944-44.64-99.552-99.552-99.552-16.896 0.192-33.408 4.608-48 12.8-30.4-105.248 30.4-215.488 135.84-245.696 105.44-30.4 215.488 30.4 245.888 135.84s-30.4 215.488-135.84 245.888c-18.144 5.152-36.8 7.648-55.648 7.648zM1017.728 473.952c-96.352 188.096-287.296 315.392-505.792 315.392s-409.44-127.296-505.792-315.392c-8.192-16.352-8.192-35.552 0-51.904 96.352-188.096 287.296-315.392 505.792-315.392s409.44 127.296 505.792 315.392c8.352 16.352 8.352 35.552 0 51.904zM511.936 192c-175.296 0-336.192 97.792-422.944 256 86.752 158.24 247.488 256 422.944 256s336.192-97.792 422.944-256c-86.752-158.24-247.488-256-422.944-256z" />
<glyph unicode="&#xe911;" glyph-name="font" d="M987.424 82.272h-53.472l-298.752 828.128c-10.048 29.728-37.952 49.6-69.248 49.6h-107.872c-31.328 0-59.2-19.872-69.248-49.6l-298.752-828.128h-53.472c-20.128 0-36.576-16.448-36.576-36.576v-73.152c0-20.128 16.448-36.576 36.576-36.576h292.576c20.128 0 36.576 16.448 36.576 36.576v73.152c0 20.128-16.448 36.576-36.576 36.576h-44.8l53.248 146.272h348.8l53.248-146.272h-44.8c-20.128 0-36.576-16.448-36.576-36.576v-73.152c0-20.128 16.448-36.576 36.576-36.576h292.576c20.128 0 36.576 16.448 36.576 36.576v73.152c0 20.128-16.448 36.576-36.576 36.576zM404.352 411.424l107.648 296 107.648-296h-215.328z" />
<glyph unicode="&#xe912;" glyph-name="heading" d="M921.6 789.344v-682.656h68.256c18.784 0 34.144-15.36 34.144-34.144v-68.256c0-18.784-15.36-34.144-34.144-34.144h-341.344c-18.784 0-34.144 15.36-34.144 34.144v68.256c0 18.784 15.36 34.144 34.144 34.144h68.256v273.056h-409.6v-273.056h68.256c18.784 0 34.144-15.36 34.144-34.144v-68.256c0-18.784-15.36-34.144-34.144-34.144h-341.344c-18.784 0-34.144 15.36-34.144 34.144v68.256c0 18.784 15.36 34.144 34.144 34.144h68.256v682.656h-68.256c-18.784 0-34.144 15.36-34.144 34.144v68.256c0 18.784 15.36 34.144 34.144 34.144h341.344c18.784 0 34.144-15.36 34.144-34.144v-68.256c0-18.784-15.36-34.144-34.144-34.144h-68.256v-273.056h409.6v273.056h-68.256c-18.784 0-34.144 15.36-34.144 34.144v68.256c0 18.784 15.36 34.144 34.144 34.144h341.344c18.784 0 34.144-15.36 34.144-34.144v-68.256c0-18.784-15.36-34.144-34.144-34.144h-68.256z" />
<glyph unicode="&#xe913;" glyph-name="list-ul" d="M96 864c-52.992 0-96-43.008-96-96s43.008-96 96-96 96 43.008 96 96-43.008 96-96 96zM96 544c-52.992 0-96-43.008-96-96s43.008-96 96-96 96 43.008 96 96-43.008 96-96 96zM96 224c-52.992 0-96-43.008-96-96s43.008-96 96-96 96 43.008 96 96-43.008 96-96 96zM992 192h-640c-17.6 0-32-14.4-32-32v-64c0-17.6 14.4-32 32-32h640c17.6 0 32 14.4 32 32v64c0 17.6-14.4 32-32 32zM992 832h-640c-17.6 0-32-14.4-32-32v-64c0-17.6 14.4-32 32-32h640c17.6 0 32 14.4 32 32v64c0 17.6-14.4 32-32 32zM992 512h-640c-17.6 0-32-14.4-32-32v-64c0-17.6 14.4-32 32-32h640c17.6 0 32 14.4 32 32v64c0 17.6-14.4 32-32 32z" />
<glyph unicode="&#xe914;" glyph-name="long-arrow-alt-down" horiz-adv-x="503" d="M343.086 242.514v690.057c0 15.086-12.343 27.429-27.429 27.429h-128c-15.086 0-27.429-12.343-27.429-27.429v-690.057h-105.371c-48.914 0-73.371-59.2-38.857-93.714l196.8-196.8c21.486-21.486 56.229-21.486 77.486 0l196.8 196.8c34.514 34.514 10.057 93.714-38.857 93.714h-105.143z" />
<glyph unicode="&#xe915;" glyph-name="long-arrow-alt-left" horiz-adv-x="2083" d="M623.608 261.987h1403.931c30.692 0 55.804 25.112 55.804 55.804v260.418c0 30.692-25.112 55.804-55.804 55.804h-1403.931v214.38c0 99.517-120.443 149.275-190.663 79.055l-400.392-400.392c-43.713-43.713-43.713-114.398 0-157.646l400.392-400.392c70.22-70.22 190.663-20.461 190.663 79.055v213.915z" />
<glyph unicode="&#xe916;" glyph-name="long-arrow-alt-right" horiz-adv-x="2083" d="M1459.735 634.013h-1403.931c-30.692 0-55.804-25.112-55.804-55.804v-260.418c0-30.692 25.112-55.804 55.804-55.804h1403.931v-214.38c0-99.517 120.443-149.275 190.663-79.055l400.392 400.392c43.713 43.713 43.713 114.398 0 157.646l-400.392 400.392c-70.22 70.22-190.663 20.461-190.663-79.055v-213.915z" />
<glyph unicode="&#xe917;" glyph-name="long-arrow-alt-up" horiz-adv-x="503" d="M160.229 653.486v-690.057c0-15.086 12.343-27.429 27.429-27.429h128c15.086 0 27.429 12.343 27.429 27.429v690.057h105.371c48.914 0 73.371 59.2 38.857 93.714l-196.8 196.8c-21.486 21.486-56.229 21.486-77.486 0l-196.8-196.8c-34.514-34.514-10.057-93.714 38.857-93.714h105.143z" />
<glyph unicode="&#xe918;" glyph-name="magic" d="M448 768.032l32 64 64 32-64 32-32 64-32-64-64-32 64-32 32-64zM160.064 640.064l53.376 106.592 106.592 53.376-106.592 53.376-53.376 106.592-53.376-106.592-106.592-53.376 106.592-53.376 53.376-106.592zM863.936 384.096l-53.376-106.592-106.592-53.376 106.592-53.376 53.376-106.592 53.376 106.592 106.592 53.376-106.592 53.376-53.376 106.592zM1005.12 771.648l-169.568 169.568c-12.608 12.608-28.992 18.784-45.376 18.784s-32.8-6.208-45.184-18.784l-726.048-726.048c-24.992-24.992-24.992-65.6 0-90.592l169.568-169.76c12.608-12.608 28.8-18.784 45.184-18.784s32.8 6.208 45.184 18.784l726.048 726.048c25.184 25.184 25.184 65.792 0.192 90.784zM718.976 553.088l-101.792 101.792 172.96 173.152 101.792-101.792-172.96-173.152z" />
<glyph unicode="&#xe919;" glyph-name="palette" d="M408.576 949.92c-198.816-38.816-359.008-198.592-398.208-396.8-74.016-374.016 263.392-652.8 517.6-613.408 82.4 12.8 122.816 109.216 84.992 183.392-46.208 90.816 19.808 196.8 121.792 196.8h159.392c71.616 0 129.6 59.2 129.792 130.592-0.992 315.2-287.808 563.2-615.424 499.424zM191.968 319.904c-35.392 0-64 28.608-64 64s28.608 64 64 64 64-28.608 64-64-28.608-64-64-64zM256 575.936c-35.392 0-64 28.608-64 64s28.608 64 64 64 64-28.608 64-64-28.608-64-64-64zM512 703.936c-35.392 0-64 28.608-64 64s28.608 64 64 64 64-28.608 64-64-28.608-64-64-64zM768 575.936c-35.392 0-64 28.608-64 64s28.608 64 64 64 64-28.608 64-64-28.608-64-64-64z" />
<glyph unicode="&#xe91a;" glyph-name="plus" d="M950.857 557.714h-329.143v329.143c0 40.457-32.686 73.143-73.143 73.143h-73.143c-40.457 0-73.143-32.686-73.143-73.143v-329.143h-329.143c-40.457 0-73.143-32.686-73.143-73.143v-73.143c0-40.457 32.686-73.143 73.143-73.143h329.143v-329.143c0-40.457 32.686-73.143 73.143-73.143h73.143c40.457 0 73.143 32.686 73.143 73.143v329.143h329.143c40.457 0 73.143 32.686 73.143 73.143v73.143c0 40.457-32.686 73.143-73.143 73.143z" />
<glyph unicode="&#xe91b;" glyph-name="question-circle" d="M512 960c-282.848 0-512-229.376-512-512 0-282.848 229.152-512 512-512s512 229.152 512 512c0 282.624-229.152 512-512 512zM512 35.104c-228.128 0-412.896 184.576-412.896 412.896 0 228.128 184.768 412.896 412.896 412.896s412.896-184.768 412.896-412.896c0-228.128-184.576-412.896-412.896-412.896zM733.312 561.952c0-138.528-149.472-140.608-149.472-191.808v-12.992c0-13.632-11.136-24.768-24.768-24.768h-94.144c-13.632 0-24.768 11.136-24.768 24.768v17.952c0 73.696 55.936 103.232 98.272 126.976 36.32 20.224 58.432 34.080 58.432 61.12 0 35.52-45.408 59.264-82.176 59.264-47.904 0-69.984-22.72-100.96-61.92-8.48-10.528-23.744-12.608-34.464-4.32l-57.408 43.552c-10.528 8.064-12.992 22.912-5.376 33.856 48.736 71.648 110.88 111.904 207.68 111.904 101.152-0.192 209.12-79.264 209.12-183.52zM598.72 216.768c0-47.904-38.816-86.72-86.72-86.72s-86.72 38.816-86.72 86.72 38.816 86.72 86.72 86.72 86.72-38.816 86.72-86.72z" />
<glyph unicode="&#xe91c;" glyph-name="tasks-alt" d="M278.4 889.6c-9.6 9.6-22.4 9.6-32 0v0l-128-128-44.8 44.8c-9.6 9.6-25.6 9.6-35.2 0v0l-32-32c-9.6-9.6-9.6-25.6 0-35.2v0l96-96c9.6-9.6 25.6-9.6 35.2 0l176 176c9.6 9.6 9.6 25.6 0 35.2l-35.2 35.2zM992 192h-576c-19.2 0-32-16-32-32v-64c0-16 12.8-32 32-32h576c16 0 32 16 32 32v64c0 19.2-16 32-32 32zM992 832h-576c-19.2 0-32-16-32-32v-64c0-19.2 12.8-32 32-32h576c16 0 32 12.8 32 32v64c0 19.2-16 32-32 32zM992 512h-576c-19.2 0-32-12.8-32-32v-64c0-16 12.8-32 32-32h576c16 0 32 16 32 32v64c0 19.2-16 32-32 32z" />
<glyph unicode="&#xe91d;" glyph-name="tasks" d="M279.232 889.568c-9.408 9.408-24.608 9.408-33.984 0 0 0 0 0 0 0l-127.392-126.592-45.408 44.192c-9.408 9.408-24.608 9.408-33.984 0 0 0 0 0 0 0l-31.392-31.392c-9.408-9.408-9.408-24.608 0-33.984 0 0 0 0 0 0l95.2-94.784c9.792-9.408 25.408-9.408 35.2 0l175.584 175.584c9.408 9.408 9.408 24.608 0.192 33.984l-33.984 32.992zM279.232 571.2c-9.408 9.408-24.608 9.408-33.984 0 0 0 0 0 0 0l-127.392-127.392-45.408 44.192c-9.408 9.408-24.608 9.408-33.984 0 0 0 0 0 0 0l-31.392-31.392c-9.408-9.408-9.408-24.608 0-33.984 0 0 0 0 0 0l95.008-95.008c9.792-9.408 25.408-9.408 35.2 0l175.776 175.808c9.408 9.408 9.408 24.384 0.192 33.792l-33.984 33.984zM992 192.608h-575.968c-17.6 0-32-14.4-32-32v-64c0-17.6 14.4-32 32-32h575.968c17.6 0 32 14.4 32 32v64c0 17.6-14.4 32-32 32zM992 832.576h-575.968c-17.6 0-32-14.4-32-32v-64c0-17.6 14.4-32 32-32h575.968c17.6 0 32 14.4 32 32v64c0 17.6-14.4 32-32 32zM992 512.608h-575.968c-17.6 0-32-14.4-32-32v-64c0-17.6 14.4-32 32-32h575.968c17.6 0 32 14.4 32 32v64c0 17.6-14.4 32-32 32zM279.232 250.016c-9.408 9.408-24.608 9.408-33.984 0 0 0 0 0 0 0l-127.392-127.392-45.408 44.192c-9.408 9.408-24.608 9.408-33.984 0 0 0 0 0 0 0l-31.392-31.392c-9.408-9.408-9.408-24.608 0-33.984 0 0 0 0 0 0l95.008-95.008c9.792-9.408 25.408-9.408 35.2 0l175.776 175.808c9.408 9.408 9.408 24.384 0.192 33.792l-33.984 33.984z" />
<glyph unicode="&#xe91e;" glyph-name="times" d="M706.036 448l291.2 291.2c35.782 35.782 35.782 93.673 0 129.455l-64.582 64.582c-35.782 35.782-93.673 35.782-129.455 0l-291.2-291.2-291.2 291.2c-35.491 35.782-93.673 35.782-129.164 0l-64.873-64.582c-35.782-35.782-35.782-93.673 0-129.455l291.2-291.2-291.2-291.2c-35.782-35.782-35.782-93.673 0-129.455l64.582-64.582c35.782-35.782 93.673-35.782 129.455 0l291.2 291.2 291.2-291.2c35.782-35.782 93.673-35.782 129.455 0l64.582 64.582c35.782 35.782 35.782 93.673 0 129.455l-291.2 291.2z" />
<glyph unicode="&#xe91f;" glyph-name="upload" d="M592 192.064h-160c-26.592 0-48 21.408-48 48v336h-175.392c-35.584 0-53.408 43.008-28.192 68.192l304.192 304.384c15.008 15.008 39.584 15.008 54.592 0l304.384-304.384c25.216-25.184 7.392-68.192-28.192-68.192h-175.392v-336c0-26.592-21.408-48-48-48zM1024 208.064v-224c0-26.592-21.408-48-48-48h-928c-26.592 0-48 21.408-48 48v224c0 26.592 21.408 48 48 48h272v-16c0-61.792 50.208-112 112-112h160c61.792 0 112 50.208 112 112v16h272c26.592 0 48-21.408 48-48zM776 32.064c0 22.016-18.016 40-40 40s-40-18.016-40-40 18.016-40 40-40 40 18.016 40 40zM904 32.064c0 22.016-18.016 40-40 40s-40-18.016-40-40 18.016-40 40-40 40 18.016 40 40z" />
<glyph unicode="&#xe920;" glyph-name="bookmark" d="M0.267-64c0 348-0.533 637.867 0 1024h1024c0-275.2 0-675.467 0-1024l-511.467 512-512.533-512z" />
<glyph unicode="&#xe921;" glyph-name="heart" horiz-adv-x="1170" d="M1056.686 890.057c-125.257 106.743-311.543 87.543-426.514-31.086l-45.029-46.4-45.029 46.4c-114.743 118.629-301.257 137.829-426.514 31.086-143.543-122.514-151.086-342.4-22.629-475.2l442.286-456.686c28.571-29.486 74.971-29.486 103.543 0l442.286 456.686c128.686 132.8 121.143 352.686-22.4 475.2v0z" />
<glyph unicode="&#xe922;" glyph-name="star" horiz-adv-x="1070" d="M477.507 924.407l-130.574-264.748-292.143-42.592c-52.39-7.599-73.386-72.186-35.393-109.179l211.359-205.96-49.99-290.943c-8.998-52.59 46.391-91.982 92.782-67.387l261.349 137.373 261.349-137.373c46.391-24.395 101.78 14.797 92.782 67.387l-49.99 290.943 211.359 205.96c37.993 36.993 16.997 101.58-35.393 109.179l-292.143 42.592-130.574 264.748c-23.395 47.191-91.182 47.791-114.778 0v0z" />
<glyph unicode="&#xe923;" glyph-name="plugin-symbol" d="M142.222 391.111h-113.778c-15.644 0-28.444-12.8-28.444-28.444v-113.778c0-15.644 12.8-28.444 28.444-28.444h113.778c15.644 0 28.444 12.8 28.444 28.444v113.778c0 15.644-12.8 28.444-28.444 28.444zM142.222 960h-113.778c-15.644 0-28.444-12.8-28.444-28.444v-113.778c0-15.644 12.8-28.444 28.444-28.444h113.778c15.644 0 28.444 12.8 28.444 28.444v113.778c0 15.644-12.8 28.444-28.444 28.444zM142.222 675.556h-113.778c-15.644 0-28.444-12.8-28.444-28.444v-113.778c0-15.644 12.8-28.444 28.444-28.444h113.778c15.644 0 28.444 12.8 28.444 28.444v113.778c0 15.644-12.8 28.444-28.444 28.444zM995.556 362.667h-682.667c-15.644 0-28.444-12.8-28.444-28.444v-56.889c0-15.644 12.8-28.444 28.444-28.444h682.667c15.644 0 28.444 12.8 28.444 28.444v56.889c0 15.644-12.8 28.444-28.444 28.444zM995.556 931.556h-682.667c-15.644 0-28.444-12.8-28.444-28.444v-56.889c0-15.644 12.8-28.444 28.444-28.444h682.667c15.644 0 28.444 12.8 28.444 28.444v56.889c0 15.644-12.8 28.444-28.444 28.444zM995.556 647.111h-682.667c-15.644 0-28.444-12.8-28.444-28.444v-56.889c0-15.644 12.8-28.444 28.444-28.444h682.667c15.644 0 28.444 12.8 28.444 28.444v56.889c0 15.644-12.8 28.444-28.444 28.444zM142.222 106.667h-113.778c-15.644 0-28.444-12.8-28.444-28.444v-113.778c0-15.644 12.8-28.444 28.444-28.444h113.778c15.644 0 28.444 12.8 28.444 28.444v113.778c0 15.644-12.8 28.444-28.444 28.444zM995.556 78.222h-682.667c-15.644 0-28.444-12.8-28.444-28.444v-56.889c0-15.644 12.8-28.444 28.444-28.444h682.667c15.644 0 28.444 12.8 28.444 28.444v56.889c0 15.644-12.8 28.444-28.444 28.444z" />
<glyph unicode="&#xe924;" glyph-name="trash-alt" d="M599.999 128h48c13.255 0 24 10.745 24 24v0 432c0 13.255-10.745 24-24 24v0h-48c-13.255 0-24-10.745-24-24v0-432c0-13.255 10.745-24 24-24v0zM927.999 800h-164.82l-68 113.4c-17.083 28.11-47.539 46.6-82.314 46.6-0.016 0-0.032 0-0.048 0h-201.637c-0.002 0-0.004 0-0.006 0-34.775 0-65.231-18.49-82.074-46.175l-0.24-0.425-68.040-113.4h-164.82c-17.673 0-32-14.327-32-32v0-32c0-17.673 14.327-32 32-32v0h32v-672c0-53.019 42.981-96 96-96v0h576c53.019 0 96 42.981 96 96v0 672h32c17.673 0 32 14.327 32 32v0 32c0 17.673-14.327 32-32 32v0zM407.679 858.18c2.136 3.511 5.941 5.82 10.286 5.82 0.012 0 0.024 0 0.036 0h187.998c0.004 0 0.009 0 0.014 0 4.345 0 8.15-2.309 10.256-5.767l0.030-0.053 34.92-58.18h-278.44zM799.999 32h-576v672h576zM375.999 128h48c13.255 0 24 10.745 24 24v0 432c0 13.255-10.745 24-24 24v0h-48c-13.255 0-24-10.745-24-24v0-432c0-13.255 10.745-24 24-24v0z" />
<glyph unicode="&#xe925;" glyph-name="spinner" d="M608 864c0-53.020-42.98-96-96-96s-96 42.98-96 96 42.98 96 96 96 96-42.98 96-96zM512 128c-53.020 0-96-42.98-96-96s42.98-96 96-96 96 42.98 96 96-42.98 96-96 96zM928 544c-53.020 0-96-42.98-96-96s42.98-96 96-96 96 42.98 96 96-42.98 96-96 96zM192 448c0 53.020-42.98 96-96 96s-96-42.98-96-96 42.98-96 96-96 96 42.98 96 96zM217.844 249.844c-53.020 0-96-42.98-96-96s42.98-96 96-96 96 42.98 96 96c0 53.018-42.982 96-96 96zM806.156 249.844c-53.020 0-96-42.98-96-96s42.98-96 96-96 96 42.98 96 96c0 53.018-42.98 96-96 96zM217.844 838.156c-53.020 0-96-42.98-96-96s42.98-96 96-96 96 42.98 96 96-42.982 96-96 96z" />
<glyph unicode="&#xe926;" glyph-name="exclamation-triangle" d="M1012.475 120.866c32.814-56.878-8.375-127.977-73.915-127.977h-853.13c-65.666 0-106.665 71.209-73.915 127.977l426.571 739.605c32.83 56.905 115.058 56.802 147.829 0l426.56-739.605zM512.001 273.778c-45.164 0-81.778-36.613-81.778-81.778s36.613-81.778 81.778-81.778 81.778 36.613 81.778 81.778-36.613 81.778-81.778 81.778zM434.36 567.726l13.188-241.778c0.617-11.314 9.972-20.171 21.301-20.171h86.304c11.33 0 20.684 8.857 21.301 20.171l13.188 241.778c0.667 12.22-9.063 22.496-21.301 22.496h-112.681c-12.238 0-21.966-10.276-21.3-22.496z" />
<glyph unicode="&#xe927;" glyph-name="image" d="M928 832h-832c-53.020 0-96-42.98-96-96v-576c0-53.020 42.98-96 96-96h832c53.020 0 96 42.98 96 96v576c0 53.020-42.98 96-96 96zM916 160h-808c-6.627 0-12 5.373-12 12v0 552c0 6.627 5.373 12 12 12v0h808c6.627 0 12-5.373 12-12v0-552c0-6.627-5.373-12-12-12v0zM256 656c-44.182 0-80-35.818-80-80s35.818-80 80-80 80 35.818 80 80-35.818 80-80 80zM192 256h640v160l-175.030 175.030c-9.372 9.372-24.568 9.372-33.942 0l-239.028-239.030-79.030 79.030c-9.372 9.372-24.568 9.372-33.942 0l-79.028-79.030v-96z" />
<glyph unicode="&#xe928;" glyph-name="images" horiz-adv-x="1152" d="M960 128v-32c0-53.020-42.98-96-96-96h-768c-53.020 0-96 42.98-96 96v512c0 53.020 42.98 96 96 96h32v-416c0-88.224 71.776-160 160-160h672zM1152 288v512c0 53.020-42.98 96-96 96h-768c-53.020 0-96-42.98-96-96v-512c0-53.020 42.98-96 96-96h768c53.020 0 96 42.98 96 96zM512 704c0-53.020-42.98-96-96-96s-96 42.98-96 96 42.98 96 96 96 96-42.98 96-96zM320 416l111.030 111.030c9.372 9.372 24.568 9.372 33.942 0l79.028-79.030 271.030 271.030c9.372 9.372 24.568 9.372 33.942 0l175.028-175.030v-224h-704v96z" />
<glyph unicode="&#xe929;" glyph-name="digits" d="M588.003 441.422c-60.949-16.998-108.18-63.488-125.914-122.722l-0.33-1.282c-4.736-15.503-7.463-33.324-7.463-51.781 0-94.882 72.066-172.934 164.447-182.402l0.781-0.065c-13.826-11.62-29.646-21.542-46.742-29.104l-1.26-0.497c-12.569-6.351-21.038-19.165-21.038-33.955 0-4.518 0.79-8.852 2.24-12.87l-0.083 0.264 22.561-45.761c4.722-14.752 18.315-25.247 34.357-25.247 4.92 0 9.61 0.987 13.881 2.774l-0.238-0.088c132.964 56.642 197.286 141.285 197.286 301.29v24.961c-0.135 100.991-82.036 182.809-183.046 182.809-17.602 0-34.624-2.484-50.734-7.122l1.292 0.318zM637.765 219.495c-0.048 0-0.104 0-0.16 0-25.362 0-45.921 20.56-45.921 45.921s20.56 45.921 45.921 45.921c25.362 0 45.921-20.56 45.921-45.921v0c0 0 0 0 0 0 0-25.306-20.469-45.83-45.752-45.921h-0.009zM240.152 813.754h36.481v-146.085h-36.481c-0.048 0-0.104 0-0.16 0-20.148 0-36.481-16.334-36.481-36.481 0-0.056 0-0.113 0-0.169v0.009-72.962c0-0.048 0-0.104 0-0.16 0-20.148 16.334-36.481 36.481-36.481 0.056 0 0.113 0 0.169 0h219.518c0.048 0 0.105 0 0.161 0 20.060 0 36.321 16.262 36.321 36.321 0 0.113-0.001 0.225-0.002 0.338v-0.017 72.962c0.001 0.095 0.001 0.208 0.001 0.32 0 20.060-16.262 36.321-36.321 36.321-0.057 0-0.113 0-0.17 0h-36.792v256.008c-0.091 20.080-16.389 36.321-36.481 36.321-0.056 0-0.113 0-0.169 0h-109.595c-14.042-0.083-26.155-8.265-31.908-20.109l-0.093-0.212-37.121-72.962c-2.478-4.806-3.931-10.489-3.931-16.513 0-14.136 8.005-26.403 19.73-32.513l0.203-0.096c4.676-2.423 10.209-3.845 16.074-3.845 0.199 0 0.398 0.002 0.597 0.005h-0.030z" />
<glyph unicode="&#xe92a;" glyph-name="check-double" d="M1010.013 610.402l-79.188 79.188c-18.797 18.797-49.193 18.797-67.79 0l-478.93-478.93-222.767 222.967c-18.797 18.797-49.193 18.797-67.79 0l-79.388-79.388c-18.797-18.797-18.797-49.193 0-67.99l335.951-336.151c18.797-18.797 49.193-18.797 67.79 0l591.913 592.313c18.797 18.997 18.797 49.393 0.2 67.99zM361.508 398.433c12.398-12.598 32.795-12.598 45.193 0l415.939 416.339c12.398 12.598 12.398 32.795 0 45.193l-90.387 90.587c-12.398 12.598-32.795 12.598-45.193 0l-302.956-302.956-110.784 110.984c-12.398 12.598-32.795 12.598-45.193 0l-90.587-90.587c-12.398-12.598-12.398-32.795 0-45.193l223.967-224.367z" />
<glyph unicode="&#xe92b;" glyph-name="at-email" d="M512 960c-282.961 0-512-228.994-512-512 0-282.961 228.994-512 512-512 99.415 0 196.835 29.192 279.552 83.041 24.785 16.134 30.194 50.143 11.462 73.026l-21.011 25.668c-15.837 19.347-43.724 24.087-64.77 10.589-60.883-39.048-132.327-60.195-205.234-60.195-209.462 0-379.871 170.409-379.871 379.871s170.409 379.871 379.871 379.871c206.739 0 379.871-118.955 379.871-330.323 0-80.074-43.547-164.629-120.093-172.786-35.817 0.937-34.911 26.543-27.821 61.985l48.378 250.034c5.917 30.573-17.505 58.961-48.644 58.961h-92.864c0 0 0 0-0.001 0-14.304 0-26.094-10.761-27.717-24.629l-0.012-0.131-0.021-0.19c-30.342 36.957-83.506 44.955-123.811 44.955-153.972 0-284.554-128.483-284.554-312.692 0-134.819 75.943-218.57 198.194-218.57 55.709 0 118.439 32.283 154.82 79.139 19.658-70.408 83.846-70.406 145.982-70.406 224.842 0 310.295 147.844 310.295 304.33 0 281.491-227.049 462.452-512 462.452zM467.241 331.499c-45.933 0-74.467 32.254-74.467 84.172 0 92.889 63.544 150.15 121.043 150.15 46.022 0 73.499-31.465 73.499-84.17 0-93.029-69.935-150.152-120.074-150.152z" />
<glyph unicode="&#xe92c;" glyph-name="paragraph" d="M987.427 923.429v-73.143c0-20.198-16.374-36.571-36.571-36.571v0h-109.714v-841.143c0-20.198-16.374-36.571-36.571-36.571v0h-73.143c-20.198 0-36.571 16.374-36.571 36.571v0 841.143h-73.143v-841.143c0-20.198-16.374-36.571-36.571-36.571v0h-73.143c-20.198 0-36.571 16.374-36.571 36.571v0 256h-73.143c-201.978 0-365.714 163.736-365.714 365.714s163.736 365.714 365.714 365.714v0h548.571c20.198 0 36.571-16.374 36.571-36.571v0z" />
<glyph unicode="&#xe92d;" glyph-name="link" d="M653.225 589.218c119.494-119.618 117.854-311.395 0.72-429.179-0.22-0.24-0.48-0.5-0.72-0.74l-134.4-134.4c-118.54-118.54-311.397-118.524-429.919 0-118.54 118.52-118.54 311.399 0 429.919l74.212 74.212c19.68 19.68 53.572 6.6 54.588-21.212 1.296-35.444 7.652-71.054 19.38-105.442 3.972-11.644 1.134-24.524-7.566-33.224l-26.174-26.174c-56.052-56.052-57.81-147.32-2.31-203.92 56.048-57.158 148.172-57.498 204.65-1.020l134.4 134.38c56.382 56.382 56.146 147.514 0 203.66-7.402 7.388-14.858 13.128-20.682 17.138-8.122 5.632-13.481 14.755-13.892 25.151l-0.002 0.061c-0.792 21.134 6.696 42.912 23.396 59.612l42.108 42.11c11.042 11.042 28.364 12.398 41.168 3.462 15.28-10.741 28.689-22.040 41.044-34.394v0zM935.094 871.101c-118.522 118.524-311.379 118.54-429.919 0l-134.4-134.4c-0.24-0.24-0.5-0.5-0.72-0.74-117.132-117.784-118.774-309.561 0.72-429.179 12.354-12.354 25.763-23.652 40.080-33.749l0.962-0.643c12.804-8.936 30.128-7.578 41.168 3.462l42.108 42.11c16.7 16.7 24.188 38.478 23.396 59.612-0.413 10.457-5.772 19.58-13.788 25.142l-0.106 0.070c-5.824 4.010-13.28 9.75-20.682 17.138-56.146 56.146-56.382 147.278 0 203.66l134.4 134.38c56.478 56.478 148.6 56.138 204.65-1.020 55.5-56.6 53.744-147.868-2.31-203.92l-26.174-26.174c-8.7-8.7-11.538-21.58-7.566-33.224 11.728-34.388 18.084-69.998 19.38-105.442 1.018-27.812 34.908-40.892 54.588-21.212l74.212 74.212c118.542 118.518 118.542 311.397 0.002 429.917z" />
<glyph unicode="&#xe92e;" glyph-name="paint-brush" d="M334.040 341.32c-80.24-5.16-153.060-35.72-194.38-144.6-4.7-12.42-16-19.96-29.18-19.96-22.22 0-90.92 55.34-110.5 68.7 0.020-164.7 75.88-309.46 256.020-309.46 151.72 0 256 87.54 256 240.38 0 6.22-1.3 12.16-1.94 18.26l-176.020 146.68zM915.78 960c-30.32 0-58.74-13.42-80.42-32.9-408.82-365.2-451.36-373.78-451.36-481.28 0-27.4 6.5-53.52 17.46-77.4l127.64-106.36c14.42-3.6 29.28-6.060 44.78-6.060 124.22 0 196.22 90.94 422.32 512.92 14.76 28.7 27.8 59.7 27.8 91.98 0 57.82-52 99.1-108.22 99.1z" />
<glyph unicode="&#xe92f;" glyph-name="check-square-multi" d="M914.286 960h-804.571c-60.571 0-109.714-49.143-109.714-109.714v-804.571c0-60.571 49.143-109.714 109.714-109.714h804.571c60.571 0 109.714 49.143 109.714 109.714v804.571c0 60.571-49.143 109.714-109.714 109.714zM914.286 45.714h-804.571v804.571h804.571v-804.571zM831.543 552.229l-50.743 50.743c-12.114 12.114-31.543 12.114-43.429 0l-307.429-307.2-142.857 143.086c-12.114 12.114-31.543 12.114-43.429 0l-50.971-50.971c-12.114-12.114-12.114-31.543 0-43.657l215.543-215.543c12.114-12.114 31.543-12.114 43.429 0l379.657 379.886c12.114 12.114 12.114 31.771 0.229 43.657v0zM415.543 416.229c8-8 21.029-8 29.029 0l266.743 267.2c8 8 8 21.029 0 29.029l-58.057 58.057c-8 8-21.029 8-29.029 0l-194.286-194.286-71.086 71.086c-8 8-21.029 8-29.029 0l-58.057-58.057c-8-8-8-21.029 0-29.029l143.771-144z" />
<glyph unicode="&#xe930;" glyph-name="phone" d="M986.8 910.8l-208 48c-22.6 5.2-45.8-6.6-55-27.8l-96-224c-8.4-19.6-2.8-42.6 13.8-56l121.2-99.2c-72-153.4-197.8-281-354.4-354.4l-99.2 121.2c-13.6 16.6-36.4 22.2-56 13.8l-224-96c-21.4-9.4-33.2-32.6-28-55.2l48-208c5-21.6 24.2-37.2 46.8-37.2 512.2 0 928 415 928 928 0 22.4-15.4 41.8-37.2 46.8z" />
<glyph unicode="&#xe931;" glyph-name="eye-slash" d="M241.117 709.171c70.879 55.2 161.759 97.231 270.878 97.231 129.279 0 232.798-58.943 308.157-128.959 74.879-69.439 124.959-151.199 148.639-209.758 5.28-12.64 5.28-26.72 0-39.36-21.44-51.68-64.479-124.479-127.839-189.438l168.319-131.839c16.64-13.12 19.68-37.28 6.56-53.92s-37.28-19.68-53.92-6.56l-947.198 742.41c-16.691 13.088-19.617 37.216-6.534 53.91 13.085 16.691 37.212 19.617 53.916 6.534l179.022-140.252zM356.956 618.404l144.479-113.279c6.72 13.6 10.56 28.96 10.56 46.72 0 16.96-6.24 34.24-13.44 49.12 4.48 0.48 8.96 2.080 13.44 2.080 84.799 0 153.599-68.799 153.599-153.599 0-23.36-4.64-44.16-14.24-63.039l63.199-48.32c17.76 32.64 27.84 70.079 27.84 111.359 0 125.759-103.199 230.398-230.398 230.398-59.679 0-114.239-24.16-155.039-61.439zM511.995 89.608c-129.279 0-232.798 58.879-308.157 128.959-74.847 70.879-124.895 152.639-148.703 209.758-5.248 12.64-5.248 26.72 0 39.36 15.264 36.64 41.328 83.999 77.807 131.519l150.895-118.879c-1.44-10.56-2.24-21.28-2.24-30.88 0-128.639 103.199-231.838 230.398-231.838 29.92 0 58.559 5.76 84.799 16.16l117.119-92.159c-58.079-31.36-125.439-52-201.918-52v0z" />
</font>
</defs>
</svg>
